Torrent details for "Saving Grace (2000) 1080p Bluray 10-bit x265 HEVC AAC 5.1 [XannyFamily]"    Log in to bookmark

Loading...
Loading...
Torrent details
Cover
Download
Torrent rating (0 rated)
Controls:
Category:
Language:
English English
Total Size:
5.07 GB
Info Hash:
9b017aad18222fe31f7b2e5841562275d9f8d780
Added By:
Added:  
22-11-2020 16:13
Views:
91
Health:
Seeds:
9
Leechers:
5
Completed:
39

File List (3) : 
Title:
Genre:
Comedy, Crime
Runtime:
93 min    -    Rating: 6.9
Director:
Plot:
A widow discovers after her husband's suicide that he has mortgaged everything they own and the banks are ready to foreclose. Faced with impending doom and little working knowledge except her ability to grow plants, she struggles to save her home. Enter her gardener, who is struggling to make a few marijuana plants grow in a hidden location and suggests that she use her green house to help grow the plants and sell them to make the money both need. He is wanting to get married, but needs capital. What he doesn't know is that his girl friend is pregnant and thus fears that they will be busted for growing marijuana. While supposedly working, the whole village is well aware of the endeavor and is hoping for their success. When the plants come in, Grace takes the crop to London and tries to sell it to a ruthless, but charming drug dealer. Everything busts loose from there.

Description
Saving Grace (2000) 1080p Bluray 10-bit x265 HEVC AAC 5.1 [XannyFamily]

Another smaller version of a previous encode. If you want DTS-HD audio and don't mind a larger file size here is the original: https://torrentgalaxy.root.yt/torrent/14151032/Saving-Grace--2000--1080p-Bluray-10-bit-x265-HEVC-DTS-HD-AAC-5-1--XannyFamily-

This torrent has high quality video with AAC 5.1 audio for a reduced file size.

Excellent movie, it is essentially a stoner comedy set in a small English village full of old people.

The TV show Doc Martin also originated from this film.

As usual the screenshots and media info are below and the screenshots are of this specific encode so what you see is what you get!

Enjoy and seed!

Screenshots:






















Media info:

Quote:

General
Unique ID                                : 128620014301929001040330728973011464070 (0x60C3504E9690CFB22B96AF1138872F86)
Complete name                            : /Volumes/sammy/Saving Grace (2000) 1080p Bluray 10-bit x265 HEVC AAC 5.1 [XannyFamily].mkv
Format                                   : Matroska
Format version                           : Version 4
File size                                : 5.07 GiB
Duration                                 : 1 h 34 min
Overall bit rate                         : 7 689 kb/s
Movie name                               : Saving Grace (2000) 1080p Bluray 10bit x265 HEVC AAC 5.1 [XannyFamily]
Description                              : From the kind folk at the XannyFamily... remember to pass it
Released date                            : 19 May 2000
Encoded date                             : UTC 2020-11-12 08:19:12
Writing application                      : mkvmerge v51.0.0 ('I Wish') 64-bit
Writing library                          : libebml v1.4.0 + libmatroska v1.6.2 / Lavf58.29.100
ARTIST                                   : Brenda Blethyn, Craig Ferguson, Martin Clunes
DIRECTOR                                 : Nigel Cole
GENRE                                    : Comedy
SUMMARY                                  : Kind old lady grows dank weed in rural English village
SYNOPSIS                                 : A widow discovers after her husband's suicide that he has mortgaged everything they own and the banks are ready to foreclose. Faced with impending doom and little working knowledge except her ability to grow plants, she struggles to save her home. Enter her gardener, who is struggling to make a few marijuana plants grow in a hidden location and suggests that she use her green house to help grow the plants and sell them to make the money both need.

Video
ID                                       : 1
Format                                   : HEVC
Format/Info                              : High Efficiency Video Coding
Format profile                           : Main [email protected]@Main
Codec ID                                 : V_MPEGH/ISO/HEVC
Duration                                 : 1 h 34 min
Bit rate                                 : 7 430 kb/s
Width                                    : 1 920 pixels
Height                                   : 1 036 pixels
Display aspect ratio                     : 1.85:1
Frame rate mode                          : Constant
Frame rate                               : 23.976 (24000/1001) FPS
Color space                              : YUV
Chroma subsampling                       : 4:2:0
Bit depth                                : 10 bits
Bits/(Pixel*Frame)                       : 0.156
Stream size                              : 4.90 GiB (97%)
Writing library                          : x265 3.2.1+1-b5c86a64bbbe:[Linux][GCC 9.3.0][64 bit] 10bit
Encoding settings                        : cpuid=1111039 / frame-threads=3 / wpp / no-pmode / no-pme / no-psnr / no-ssim / log-level=2 / input-csp=1 / input-res=1920x1036 / interlace=0 / total-frames=0 / level-idc=0 / high-tier=1 / uhd-bd=0 / ref=3 / no-allow-non-conformance / no-repeat-headers / annexb / no-aud / no-hrd / info / hash=0 / no-temporal-layers / open-gop / min-keyint=24 / keyint=240 / gop-lookahead=0 / bframes=4 / b-adapt=2 / b-pyramid / bframe-bias=0 / rc-lookahead=20 / lookahead-slices=6 / scenecut=40 / radl=0 / no-splice / no-intra-refresh / ctu=64 / min-cu-size=8 / no-rect / no-amp / max-tu-size=32 / tu-inter-depth=1 / tu-intra-depth=1 / limit-tu=0 / rdoq-level=0 / dynamic-rd=0.00 / no-ssim-rd / signhide / no-tskip / nr-intra=0 / nr-inter=0 / no-constrained-intra / strong-intra-smoothing / max-merge=3 / limit-refs=1 / no-limit-modes / me=1 / subme=2 / merange=57 / temporal-mvp / no-hme / weightp / no-weightb / no-analyze-src-pics / deblock=0:0 / sao / no-sao-non-deblock / rd=3 / selective-sao=4 / early-skip / rskip / no-fast-intra / no-tskip-fast / no-cu-lossless / b-intra / no-splitrd-skip / rdpenalty=0 / psy-rd=2.00 / psy-rdoq=0.00 / no-rd-refine / no-lossless / cbqpoffs=0 / crqpoffs=0 / rc=crf / crf=21.0 / qcomp=0.60 / qpstep=4 / stats-write=0 / stats-read=0 / ipratio=1.40 / pbratio=1.30 / aq-mode=2 / aq-strength=1.00 / cutree / zone-count=0 / no-strict-cbr / qg-size=32 / no-rc-grain / qpmax=69 / qpmin=0 / no-const-vbv / sar=1 / overscan=0 / videoformat=5 / range=0 / colorprim=1 / transfer=1 / colormatrix=1 / chromaloc=0 / display-window=0 / cll=0,0 / min-luma=0 / max-luma=1023 / log2-max-poc-lsb=8 / vui-timing-info / vui-hrd-info / slices=1 / no-opt-qp-pps / no-opt-ref-list-length-pps / no-multi-pass-opt-rps / scenecut-bias=0.05 / no-opt-cu-delta-qp / no-aq-motion / no-hdr / no-hdr-opt / no-dhdr10-opt / no-idr-recovery-sei / analysis-reuse-level=5 / scale-factor=0 / refine-intra=0 / refine-inter=0 / refine-mv=1 / refine-ctu-distortion=0 / no-limit-sao / ctu-info=0 / no-lowpass-dct / refine-analysis-type=0 / copy-pic=1 / max-ausize-factor=1.0 / no-dynamic-refine / no-single-sei / no-hevc-aq / no-svt / no-field / qp-adaptation-range=1.00
Default                                  : Yes
Forced                                   : No
Color range                              : Limited
Color primaries                          : BT.709
Transfer characteristics                 : BT.709
Matrix coefficients                      : BT.709

Audio
ID                                       : 2
Format                                   : AAC LC
Format/Info                              : Advanced Audio Codec Low Complexity
Codec ID                                 : A_AAC-2
Duration                                 : 1 h 34 min
Bit rate                                 : 256 kb/s
Channel(s)                               : 6 channels
Channel layout                           : C L R Ls Rs LFE
Sampling rate                            : 48.0 kHz
Frame rate                               : 46.875 FPS (1024 SPF)
Compression mode                         : Lossy
Delay relative to video                  : -21 ms
Stream size                              : 173 MiB (3%)
Title                                    : AAC Surround 5.1 (Lossy)
Language                                 : English
Default                                  : No
Forced                                   : No

Text
ID                                       : 3
Format                                   : ASS
Codec ID                                 : S_TEXT/ASS
Codec ID/Info                            : Advanced Sub Station Alpha
Duration                                 : 1 h 27 min
Bit rate                                 : 89 b/s
Count of elements                        : 999
Compression mode                         : Lossless
Stream size                              : 57.6 KiB (0%)
Title                                    : Full English Subtitles
Language                                 : English
Default                                  : No
Forced                                   : No

Menu
00:00:00.000                             : :Chapter 1
00:10:09.776                             : :Chapter 2
00:17:27.338                             : :Chapter 3
00:22:10.454                             : :Chapter 4
00:25:24.398                             : :Chapter 5
00:34:17.055                             : :Chapter 6
00:40:31.012                             : :Chapter 7
00:45:28.017                             : :Chapter 8
00:52:37.112                             : :Chapter 9
00:59:45.665                             : :Chapter 10
01:13:03.963                             : :Chapter 11
01:21:57.871                             : :Chapter 12
01:26:29.059                             : :Chapter 13
01:30:45.732                             : :Chapter 14

Similar torrents

Name 
DL
Uploader
Size 
S/L 
Added
-
6.36 GB
188
[2/2]
16/10/20 19:54
Uploaded by XannyFamily:_verified_uploader: Size 6.36 GBHealth [2/2]Added 16/10/20 19:54
-
1.35 MB
407
[0/0]
09/06/19 14:21
Uploaded by zakareya:_trusted_uploader::_sitefriend: Size 1.35 MBHealth [0/0]Added 09/06/19 14:21

  User comments

No comments have been posted yet.


Post anonymous comment
:) :( :D :P :-) B) 8o :? 8) ;) :-* :-( :| O:-D :-@ :facepalm :o) brb :warn :help :bad :love :idea :bomb :!


CAPTCHA Image 

Anonymous comments have a moderation delay and show up after 15 minutes

  Sitefriends