Torrent details for "New York Dolls - New York Dolls (1973) (PBTHAL LP 24-96) [FLAC] vtwin88cube"    Log in to bookmark

Loading...
Loading...
Torrent details
Cover
Download
Torrent rating (0 rated)
Controls:
Category:
Language:
English English
Total Size:
924.78 MB
Info Hash:
246f4373882ddc45ea3177bc4ceb2ba863c02196
Added By:
Added:  
22-11-2020 16:13
Views:
125
Health:
Seeds:
42
Leechers:
18
Completed:
257

File List (15) : 

Description
New York Dolls
New York Dolls (1973)
FLAC LOSSLESS 24bit-96kHz
PBTHAL Vinyl Rip


allmusic.com...

When the New York Dolls released their debut album in 1973, they managed to be named both "Best New Band" and "Worst Band" in Creem Magazine's annual reader's poll, and it usually takes something special to polarize an audience like that. And the Dolls were inarguably special -- decades after its release, New York Dolls still sounds thoroughly unique, a gritty, big-city amalgam of Stones-style R&B, hard rock guitars, lyrics that merge pulp storytelling with girl group attitude, and a sloppy but brilliant attack that would inspire punk rock (without the punks ever getting its joyous slop quite right).


foobar2000 1.4.3 / Dynamic Range Meter 1.1.1
log date: 2020-11-21 08:30:53

--------------------------------------------------------------------------------
Analyzed: New York Dolls / New York Dolls
--------------------------------------------------------------------------------

DR         Peak         RMS     Duration Track
--------------------------------------------------------------------------------
DR12      -1.05 dB   -14.25 dB      3:45 01-Personality Crisis
DR11      -1.86 dB   -14.46 dB      3:22 02-Looking For A Kiss
DR11      -0.76 dB   -14.51 dB      3:42 03-Vietnamese Baby
DR12      -1.49 dB   -16.09 dB      4:13 04-Lonely Planet Boy
DR12      -1.01 dB   -14.28 dB      6:02 05-Frankenstein
DR11      -1.46 dB   -14.39 dB      3:11 06-Trash
DR11      -0.70 dB   -13.59 dB      3:08 07-Bad Girl
DR12      -1.51 dB   -14.59 dB      4:25 08-Subway Train
DR11      -2.01 dB   -14.83 dB      2:52 09-Pills
DR12      -1.20 dB   -15.23 dB      3:43 10-Private World
DR11      -2.62 dB   -15.56 dB      4:44 11-Jet Boy

Number of tracks:  11
Official DR value: DR12

Samplerate:        96000 Hz
Channels:          2
Bits per sample:   24
Bitrate:           2967 kbps
Codec:             FLAC





Support the artists...
buy it if you like it!

Thanks for Seeding!
Cheers! ;)

Similar torrents

  No similar torrents were found.

  User comments

No comments have been posted yet.


Post anonymous comment
:) :( :D :P :-) B) 8o :? 8) ;) :-* :-( :| O:-D :-@ :facepalm :o) brb :warn :help :bad :love :idea :bomb :!


CAPTCHA Image 

Anonymous comments have a moderation delay and show up after 15 minutes

  Sitefriends