Torrent details for "Anwar Ka Ajab Kissa (2020) Hindi (1080p WEBRip x265 HEVC 10bit AAC 2.0 ESub) - [Musafirboy]"    Log in to bookmark

Loading...
Loading...
Torrent details
Cover
Download
Torrent rating (0 rated)
Controls:
Category:
Language:
Hindi Hindi
Total Size:
2.12 GB
Info Hash:
287e0b383643d322947f6266c0fc2cc5ffa62e6b
Added By:
Added:  
22-11-2020 16:12 (edited 23-11-2020 07:30) by Musafirboy:_trusted_uploader::_junkie:
Views:
466
Health:
Seeds:
59
Leechers:
20
Completed:
1,277

File List (3) : 
Title:
Sniffer (2013)
Genre:
Adventure, Comedy, Drama
Runtime:
137 min    -    Rating: 6.3
Plot:
This a journey of a detective,his life and how things are to him. His life is about following people, finding though he is still in search for himself, how he connects to the people he meets and gets intertwined in their lives.

Description







Anwar Ka Ajab Kissa (2020) Hindi

IMDb (6.3/10)




















Source Information
Anwar.Ka.Ajab.Kissa.(2020).1080p.WEB-DL.AAC.ESub-DusIcTv (5.3 GB)









Media Information

General
Complete name : Anwar Ka Ajab Kissa (2020) Hindi (1080p WEBRip x265 10bit) - [Musafirboy].mkv
Format : Matroska
Format version : Version 4
File size : 2.12 GiB
Duration : 2 h 6 min
Overall bit rate : 2 397 kb/s
Encoded date : UTC 2020-11-22 15:21:51

Video
Format : HEVC
Format/Info : High Efficiency Video Coding
Format profile : Main [email protected]@Main
Codec ID : V_MPEGH/ISO/HEVC
Duration : 2 h 6 min
Bit rate : 2 201 kb/s
Width : 1 920 pixels
Height : 1 080 pixels
Display aspect ratio : 16:9
Frame rate mode : Constant
Frame rate : 24.000 FPS
Color space : YUV
Chroma subsampling : 4:2:0
Bit depth : 10 bits
Bits/(Pixel*Frame) : 0.044
Stream size : 1.94 GiB (92%)
Writing library : x265 3.2+9-971180b100f8:[Windows][GCC 9.2.0][64 bit] 10bit
Encoding settings : cpuid=1111039 / frame-threads=4 / numa-pools=16 / wpp / no-pmode / no-pme / no-psnr / no-ssim / log-level=2 / input-csp=1 / input-res=1920x1080 / interlace=0 / total-frames=182119 / level-idc=50 / high-tier=1 / uhd-bd=0 / ref=4 / no-allow-non-conformance / no-repeat-headers / annexb / no-aud / no-hrd / info / hash=0 / no-temporal-layers / open-gop / min-keyint=24 / keyint=250 / gop-lookahead=0 / bframes=4 / b-adapt=2 / b-pyramid / bframe-bias=0 / rc-lookahead=25 / lookahead-slices=4 / scenecut=40 / radl=0 / no-splice / no-intra-refresh / ctu=64 / min-cu-size=8 / rect / no-amp / max-tu-size=32 / tu-inter-depth=1 / tu-intra-depth=1 / limit-tu=0 / rdoq-level=2 / dynamic-rd=0.00 / no-ssim-rd / signhide / no-tskip / nr-intra=0 / nr-inter=0 / no-constrained-intra / strong-intra-smoothing / max-merge=3 / limit-refs=3 / limit-modes / me=3 / subme=3 / merange=57 / temporal-mvp / no-frame-dup / no-hme / weightp / no-weightb / no-analyze-src-pics / deblock=0:0 / sao / no-sao-non-deblock / rd=4 / selective-sao=4 / no-early-skip / rskip / no-fast-intra / no-tskip-fast / no-cu-lossless / no-b-intra / no-splitrd-skip / rdpenalty=0 / psy-rd=2.00 / psy-rdoq=1.00 / no-rd-refine / no-lossless / cbqpoffs=0 / crqpoffs=0 / rc=abr / bitrate=2200 / qcomp=0.60 / qpstep=4 / stats-write=0 / stats-read=2 / cplxblur=20.0 / qblur=0.5 / ipratio=1.40 / pbratio=1.30 / aq-mode=2 / aq-strength=1.00 / cutree / zone-count=0 / no-strict-cbr / qg-size=32 / no-rc-grain / qpmax=69 / qpmin=0 / no-const-vbv / sar=0 / overscan=0 / videoformat=5 / range=0 / colorprim=1 / transfer=1 / colormatrix=1 / chromaloc=0 / display-window=0 / cll=0,0 / min-luma=0 / max-luma=1023 / log2-max-poc-lsb=8 / vui-timing-info / vui-hrd-info / slices=1 / no-opt-qp-pps / no-opt-ref-list-length-pps / no-multi-pass-opt-rps / scenecut-bias=0.05 / no-opt-cu-delta-qp / no-aq-motion / no-hdr / no-hdr-opt / no-dhdr10-opt / no-idr-recovery-sei / analysis-reuse-level=5 / scale-factor=0 / refine-intra=0 / refine-inter=0 / refine-mv=1 / refine-ctu-distortion=0 / no-limit-sao / ctu-info=0 / no-lowpass-dct / refine-analysis-type=0 / copy-pic=1 / max-ausize-factor=1.0 / no-dynamic-refine / no-single-sei / no-hevc-aq / no-svt / no-field / qp-adaptation-range=1.00
Color range : Limited
Color primaries : BT.709
Transfer characteristics : BT.709
Matrix coefficients : BT.709

Audio
Format : AAC LC
Format/Info : Advanced Audio Codec Low Complexity
Codec ID : A_AAC-2
Duration : 2 h 6 min
Bit rate : 192 kb/s
Channel(s) : 2 channels
Channel layout : L R
Sampling rate : 48.0 kHz
Frame rate : 46.875 FPS (1024 SPF)
Compression mode : Lossy
Delay relative to video : 1 ms
Stream size : 175 MiB (8%)
Language : Hindi

Subtitle
Format : UTF-8
Codec ID : S_TEXT/UTF8
Codec ID/Info : UTF-8 Plain Text
Duration : 2 h 3 min
Bit rate : 31 b/s
Count of elements : 964
Stream size : 28.9 KiB (0%)
Language : English




Similar torrents

Name 
DL
Uploader
Size 
S/L 
Added
-
1,022.24 MB
586
[91/45]
23/11/20 07:27
Uploaded by Musafirboy:_trusted_uploader: Size 1,022.24 MBHealth [91/45]Added 23/11/20 07:27

  User comments

Guest-3637
Posted: 2020-11-23 06:12:14 (5Days ago) Report
Guest user
avatar
Reppoints: -100
BRO YOUR QUALITY OF 10BIT MOVIES IS JUST LIT AF🔥🔥 U PROVIDE BEST COLOURS IN 10BIT . SO PLEASE CAN U ENCODE AND UPLOAD __THE OUTPOST SEASON 1 AND 2 1080P 10BIT HINDI __ PLEASE UPLOAD


Post anonymous comment
:) :( :D :P :-) B) 8o :? 8) ;) :-* :-( :| O:-D :-@ :facepalm :o) brb :warn :help :bad :love :idea :bomb :!


CAPTCHA Image 

Anonymous comments have a moderation delay and show up after 15 minutes

  Sitefriends