Torrent details for "James Taylor - Greatest Hits (1976) (PBTHAL LP 24-96) [FLAC] vtwin88cube"    Log in to bookmark

Loading...
Loading...
Torrent details
Cover
Download
Torrent rating (1 rated)
Controls:
Category:
Language:
English English
Total Size:
850.31 MB
Info Hash:
449d5b086f9151018c79628b35004255334b0013
Added By:
Added:  
22-11-2020 15:36
Views:
227
Health:
Seeds:
62
Leechers:
32
Completed:
383

File List (16) : 
Thanks for rating :
kentk9:_trusted_user::_sitefriend::_male::_sitelover: (5),


Description
James Taylor
Greatest Hits (1976)
FLAC LOSSLESS 24bit-96kHz
PBTHAL Vinyl Rip


allmusic.com...

James Taylor had scored eight Top 40 hits by the fall of 1976 when Warner Brothers marked the end of his contract with this compilation. One of those hits, the Top Ten gold single "Mockingbird," a duet with his wife Carly Simon, was on Elektra Records, part of the Warner family of labels and presumably available, but it was left off. "Long Ago and Far Away," a lesser hit (though it made the Top Ten on the easy listening charts), wasn't used either. In addition to the six hits -- "Fire and Rain," "Country Road," "You've Got a Friend," "Don't Let Me Be Lonely Tonight," "How Sweet It Is (To Be Loved by You)," and "Shower the People" -- that were included, the album featured a couple of less successful singles, "Mexico" and "Walking Man," the album track "Sweet Baby James," and three previously unreleased recordings -- a live version of "Steamroller" and newly recorded versions of "Something in the Way She Moves" and "Carolina in My Mind," songs featured on Taylor's 1968 debut album, recorded for Apple/Capitol. The result was a reasonable collection for an artist who wasn't particularly well-defined by his singles. One got little sense of Taylor's evolution from the dour, confessional songs of his first two albums to the more conventional pop songs of his sixth and seventh ones. But one did hear isolated examples of Taylor's undeniable warmth and facility for folk/country-tinged pop. By the next summer, Taylor was back in the Top Ten on Columbia, and Greatest Hits was out of date. But it remains a good sampler of Taylor's more popular early work.


foobar2000 1.4.3 / Dynamic Range Meter 1.1.1
log date: 2020-11-11 10:08:42

--------------------------------------------------------------------------------
Analyzed: James Taylor / Greatest Hits
--------------------------------------------------------------------------------

DR         Peak         RMS     Duration Track
--------------------------------------------------------------------------------
DR13      -3.49 dB   -20.04 dB      3:12 01-Something In The Way She Moves
DR14      -1.24 dB   -18.78 dB      4:00 02-Carolina In My Mind
DR14      -0.70 dB   -18.03 dB      3:25 03-Fire And Rain
DR13      -3.43 dB   -18.45 dB      2:54 04-Sweet Baby James
DR13      -0.70 dB   -17.90 dB      3:25 05-Country Road
DR14      -0.70 dB   -18.65 dB      4:31 06-You've Got A Friend
DR14      -0.70 dB   -16.17 dB      2:36 07-Don't Let Me Be Lonely Tonight
DR14      -0.70 dB   -18.50 dB      3:35 08-Walking Man
DR14      -0.70 dB   -16.32 dB      3:37 09-How Sweet It Is (To Be Loved By You)
DR13      -0.70 dB   -16.09 dB      2:59 10-Mexico
DR12      -1.78 dB   -17.58 dB      4:01 11-Shower The People
DR13      -0.70 dB   -19.33 dB      5:21 12-Steamroller

Number of tracks:  12
Official DR value: DR13

Samplerate:        96000 Hz
Channels:          2
Bits per sample:   24
Bitrate:           2680 kbps
Codec:             FLAC





Support the artists...
buy it if you like it!

Thanks for Seeding!
Cheers! ;)

Similar torrents

Name 
DL
Uploader
Size 
S/L 
Added
-
226.82 MB
407
[9/0]
03/09/20 13:53
Uploaded by pmedia:_trusted_uploader::_sitefriend: Size 226.82 MBHealth [9/0]Added 03/09/20 13:53
-
405.99 MB
940
[7/1]
03/10/19 21:17
Uploaded by leonenero:_trusted_user: Size 405.99 MBHealth [7/1]Added 03/10/19 21:17
-
103.48 MB
766
[5/1]
29/02/20 13:52
Uploaded by djdezzie:_trusted_uploader::_sitefriend: Size 103.48 MBHealth [5/1]Added 29/02/20 13:52
-
393.11 MB
1,482
[5/3]
09/05/19 07:01
Uploaded by vtwin88cube:_trusted_uploader::_sitefriend: Size 393.11 MBHealth [5/3]Added 09/05/19 07:01
-
612.14 MB
956
[3/1]
26/03/20 03:56
Uploaded by vtwin88cube:_trusted_uploader::_sitefriend: Size 612.14 MBHealth [3/1]Added 26/03/20 03:56
-
327.19 MB
602
[3/10]
11/12/19 05:31
Uploaded by vtwin88cube:_trusted_uploader::_sitefriend: Size 327.19 MBHealth [3/10]Added 11/12/19 05:31
-
1.94 GB
315
[2/1]
18/08/20 14:35
Uploaded by yeraycito:_trusted_uploader: Size 1.94 GBHealth [2/1]Added 18/08/20 14:35
-
933.01 MB
619
[2/0]
28/02/20 18:14
Uploaded by djdezzie:_trusted_uploader::_sitefriend: Size 933.01 MBHealth [2/0]Added 28/02/20 18:14
-
666.58 MB
718
[1/1]
01/10/19 08:20
Uploaded by was95:_trusted_uploader: Size 666.58 MBHealth [1/1]Added 01/10/19 08:20
2.21 GB
1,217
[0/0]
22/03/19 10:39
Uploaded by yeraycito:_trusted_uploader: Size 2.21 GBHealth [0/0]Added 22/03/19 10:39

  User comments

Posted: 2020-11-23 02:17:31 (2Days ago) Report

avatar
Reppoints: 455
Beautiful music for any occasion. And this compilation has the goods.

Now stop this uploading frenzy or I'll have to go out and buy another hard-drive. :D

Thanks, vtwin88cube:_trusted_uploader::_sitefriend::_male::_junkie:.  :love

Image posted (hover mouse here to see)


Posted: 2020-11-23 03:08:55 (2Days ago) Report

avatar
Reppoints: 115
Might as well go ahead and order that hard drive bro :D


Posted: 2020-11-23 03:56:44 (2Days ago) Report

avatar
Reppoints: 455
^ Howdy m8.


Well, Christmas is coming ... so maybe I'll write Santa a letter. Hmmm.

Dear Santa: Please bring me a hot girl and a new hard-on ... oops, I meant hard-drive.  :-@


Posted: 2020-11-23 04:00:09 (2Days ago) Report

avatar
Reppoints: 115
I hope Santa brings me a new hard one too, I wore this one out long ago :D


Posted: 2020-11-23 04:08:43 (2Days ago) Report

avatar
Reppoints: 455
^ :D


Post anonymous comment
:) :( :D :P :-) B) 8o :? 8) ;) :-* :-( :| O:-D :-@ :facepalm :o) brb :warn :help :bad :love :idea :bomb :!


CAPTCHA Image 

Anonymous comments have a moderation delay and show up after 15 minutes

  Sitefriends