Torrent details for "Carly Simon - The Best Of (1975) (PBTHAL LP 24-96) [FLAC] vtwin88cube"    Log in to bookmark

Loading...
Loading...
Torrent details
Cover
Download
Torrent rating (0 rated)
Controls:
Category:
Language:
English English
Total Size:
812.28 MB
Info Hash:
cdd480bd60143d5f7daaa83c185761ee3db5df11
Added By:
Added:  
22-11-2020 15:34
Views:
207
Health:
Seeds:
56
Leechers:
26
Completed:
337

File List (14) : 

Description
Carly Simon
The Best Of Carly Simon (1975)
FLAC LOSSLESS 24bit-96kHz
PBTHAL Vinyl Rip


allmusic.com...

Carly Simon was among the pop royalty of the singer/songwriter era of the early '70s. This album collects her most popular songs of the first five years of her solo career. Opening with the powerful "That's the Way I've Always Heard It Should Be," for which Simon received the 1971 Best New Artist Grammy Award, it includes four tunes from the classic No Secrets album, including the number one hit "You're So Vain." Simon's duet with then-husband James Taylor on "Mockingbird" was also a Top Ten hit. "Anticipation," with its classic "I rehearsed those words just late last night," and the repetitive coda "these are the good old days," though merely a ketchup commercial to a later generation, still retains its power here in the original version. Simon's insightful lyrics and evocative voice remain fresh years later. This album is a good starting point for those interested in discovering why.


foobar2000 1.4.3 / Dynamic Range Meter 1.1.1
log date: 2020-11-14 23:25:57

--------------------------------------------------------------------------------
Analyzed: Carly Simon / The Best Of Carly Simon
--------------------------------------------------------------------------------

DR         Peak         RMS     Duration Track
--------------------------------------------------------------------------------
DR16      -0.70 dB   -21.14 dB      4:19 01-That's The Way I've Always Heard It Should Be
DR13      -3.47 dB   -19.12 dB      3:02 02-The Right Thing To Do
DR14      -1.80 dB   -17.55 dB      3:52 03-Mockingbrid
DR14      -2.76 dB   -20.32 dB      3:46 04-Legnd In Your Own Time
DR13      -2.72 dB   -19.05 dB      3:41 05-Haven't Got Time For The Pain
DR14      -0.70 dB   -16.84 dB      4:19 06-You're So Vain
DR13      -3.56 dB   -19.19 dB      3:59 07-(We Have) No Secrets
DR13      -2.63 dB   -18.24 dB      3:52 08-Night Owl
DR13      -3.50 dB   -19.61 dB      3:22 09-Anticipation
DR13      -2.72 dB   -18.73 dB      3:55 10-Attitude Dancing

Number of tracks:  10
Official DR value: DR13

Samplerate:        96000 Hz
Channels:          2
Bits per sample:   24
Bitrate:           3111 kbps
Codec:             FLAC




Support the artists...
buy it if you like it!

Thanks for Seeding!
Cheers! ;)

Similar torrents

Name 
DL
Uploader
Size 
S/L 
Added
-
961.39 MB
485
[64/32]
28/04/20 16:51
Uploaded by djdezzie:_trusted_uploader::_sitefriend: Size 961.39 MBHealth [64/32]Added 28/04/20 16:51
-
493.98 MB
611
[6/1]
27/03/20 00:16
Uploaded by vtwin88cube:_trusted_uploader::_sitefriend: Size 493.98 MBHealth [6/1]Added 27/03/20 00:16
-
2.32 GB
366
[3/0]
28/04/20 15:32
Uploaded by djdezzie:_trusted_uploader::_sitefriend: Size 2.32 GBHealth [3/0]Added 28/04/20 15:32

  User comments

No comments have been posted yet.


Post anonymous comment
:) :( :D :P :-) B) 8o :? 8) ;) :-* :-( :| O:-D :-@ :facepalm :o) brb :warn :help :bad :love :idea :bomb :!


CAPTCHA Image 

Anonymous comments have a moderation delay and show up after 15 minutes

  Sitefriends