Torrent details for "Jakten på en mördare S01 E01 - 1080p x264 (ENG SUBS) [BRSHNKV]"    Log in to bookmark

Loading...
Loading...
Torrent details
Cover
Download
Torrent rating (0 rated)
Controls:
Category:
Language:
Swedish Swedish
Total Size:
954.04 MB
Info Hash:
b22279044016da09507ec9b1eb749e7c3d5169bc
Added By:
Added:  
22-11-2020 15:00
Views:
209
Health:
Seeds:
26
Leechers:
9
Completed:
160

File List (7) : 
Genre:
Crime
Runtime:
270 min    -    Rating: 8.2
Plot:
Season: 1 Year: 2020

Description







Tech:

Format                                   : MPEG-4
Format profile                           : Base Media / Version 2
Codec ID                                 : mp42
File size                                : 954 MiB
Duration                                 : 45mn 0s
Overall bit rate mode                    : Variable
Overall bit rate                         : 2 963 Kbps
Movie name                               : Jakten på en mördare S01 E01 - 1080p x264 [BRSHNKV]
Encoded date                             : UTC 2020-11-19 16:11:04
Tagged date                              : UTC 2020-11-19 16:11:04
Writing application                      : HandBrake 1.1.1 2018061800

Video
ID                                       : 1
Format                                   : AVC
Format/Info                              : Advanced Video Codec
Format profile                           : [email protected]
Format settings, CABAC                   : Yes
Format settings, ReFrames                : 4 frames
Codec ID                                 : avc1
Codec ID/Info                            : Advanced Video Coding
Duration                                 : 45mn 0s
Bit rate                                 : 2 800 Kbps
Width                                    : 1 920 pixels
Height                                   : 1 006 pixels
Display aspect ratio                     : 16:9
Original display aspect ratio            : 16:9
Frame rate mode                          : Constant
Frame rate                               : 25.000 fps
Color space                              : YUV
Chroma subsampling                       : 4:2:0
Bit depth                                : 8 bits
Scan type                                : Progressive
Bits/(Pixel*Frame)                       : 0.058
Stream size                              : 901 MiB (94%)
Writing library                          : x264 core 155 r2901 7d0ff22
Encoded date                             : UTC 2020-11-19 16:11:04
Tagged date                              : UTC 2020-11-19 16:11:04
Color range                              : Limited
Color primaries                          : BT.709
Transfer characteristics                 : BT.709
Matrix coefficients                      : BT.709

Audio
ID                                       : 2
Format                                   : AAC
Format/Info                              : Advanced Audio Codec
Format profile                           : LC
Codec ID                                 : 40
Duration                                 : 45mn 0s
Bit rate mode                            : Variable
Bit rate                                 : 157 Kbps
Channel(s)                               : 2 channels
Channel positions                        : Front: L R
Sampling rate                            : 48.0 KHz
Compression mode                         : Lossy
Stream size                              : 50.5 MiB (5%)
Title                                    : Stereo / Stereo
Language                                 : Swedish
Encoded date                             : UTC 2020-11-19 16:11:04
Tagged date                              : UTC 2020-11-19 16:11:04


Similar torrents

Name 
DL
Uploader
Size 
S/L 
Added
-
952.65 MB
144
[28/4]
28/11/20 21:19
Uploaded by Barishnikov:_trusted_uploader: Size 952.65 MBHealth [28/4]Added 28/11/20 21:19

  User comments

Guest-2029
Posted: 2020-11-23 17:32:59 (1Wk ago) Report
Guest user
avatar
Reppoints: -100
Thank you, "Barry" ;O)


Post anonymous comment
:) :( :D :P :-) B) 8o :? 8) ;) :-* :-( :| O:-D :-@ :facepalm :o) brb :warn :help :bad :love :idea :bomb :!


CAPTCHA Image 

Anonymous comments have a moderation delay and show up after 15 minutes

  Sitefriends